<?xml version="1.0" standalone="no"?>
<!DOCTYPE svg PUBLIC "-//W3C//DTD SVG 1.1//EN" "http://www.w3.org/Graphics/SVG/1.1/DTD/svg11.dtd" >
<svg xmlns="http://www.w3.org/2000/svg">
  <metadata>Created by iconfont</metadata>
  <defs>
  <font id="iconfont" horiz-adv-x="1024">
    <font-face
      font-family="iconfont"
      font-weight="400"
      font-stretch="normal"
      units-per-em="1024"
      ascent="896"
      descent="-128"
    />
      <missing-glyph />
      
      <glyph glyph-name="indent" unicode="&#58977;" d="M320 704H213.333333V0h597.333334V704h-106.666667V682.666667a42.666667 42.666667 0 0 0-42.666667-42.666667h-298.666666a42.666667 42.666667 0 0 0-42.666667 42.666667v21.333333z m384 85.333333H810.666667q85.333333 0 85.333333-85.333333V0q0-85.333333-85.333333-85.333333H213.333333q-85.333333 0-85.333333 85.333333V704q0 85.333333 85.333333 85.333333h106.666667V810.666667a42.666667 42.666667 0 0 0 42.666667 42.666666h298.666666a42.666667 42.666667 0 0 0 42.666667-42.666666v-21.333334z m-85.333333-42.624V768h-213.333334v-42.666667h213.333334v21.376zM515.712 277.333333l-97.877333-97.834666 60.330666-60.330667 170.752 170.666667a42.666667 42.666667 0 0 1-30.165333 72.832h-110.421333l97.834666 97.877333-60.330666 60.330667-170.666667-170.666667a42.666667 42.666667 0 0 1 30.165333-72.874667h110.378667z"  horiz-adv-x="1024" />
      
      <glyph glyph-name="return" unicode="&#58978;" d="M706.56 160.426667l-225.792 225.877333 225.834667 225.834667-60.373334 60.330666-256-256a42.666667 42.666667 0 0 1 0-60.330666l256-256 60.373334 60.330666z"  horiz-adv-x="1024" />
      
      <glyph glyph-name="company1" unicode="&#58979;" d="M192 597.333333v-597.333333H85.333333v-85.333333h853.333334v85.333333h-64v405.333333a42.666667 42.666667 0 0 1-17.877334 34.730667l-280.789333 200.533333V810.666667a42.666667 42.666667 0 0 1-67.456 34.730666l-298.666667-213.333333A42.666667 42.666667 0 0 1 192 597.333333z m298.666667-597.333333h-213.333334V575.36l213.333334 152.405333V0zM341.333333 469.333333h85.333334V554.666667H341.333333v-85.333334z m448-469.333333h-213.333333V535.765333l213.333333-152.405333V0zM341.333333 277.333333h85.333334v85.333334H341.333333v-85.333334z m298.666667-21.333333h85.333333v85.333333h-85.333333v-85.333333z m-298.666667-170.666667h85.333334v85.333334H341.333333v-85.333334z m298.666667 0h85.333333v85.333334h-85.333333v-85.333334z"  horiz-adv-x="1024" />
      
      <glyph glyph-name="search" unicode="&#58980;" d="M42.666667 448q0 167.893333 118.698666 286.634667Q280.106667 853.333333 448 853.333333t286.592-118.698666Q853.333333 615.893333 853.333333 448q0-146.133333-89.941333-255.018667l156.544-156.586666-60.373333-60.330667-156.544 156.586667Q594.133333 42.666667 448 42.666667q-167.893333 0-286.634667 118.741333Q42.666667 280.106667 42.666667 448z m85.333333 0q0-132.565333 93.738667-226.261333Q315.434667 128 448 128q132.565333 0 226.261333 93.738667Q768 315.434667 768 448q0 132.565333-93.738667 226.261333Q580.565333 768 448 768 315.434667 768 221.738667 674.261333 128 580.565333 128 448z"  horiz-adv-x="1024" />
      
      <glyph glyph-name="license" unicode="&#58981;" d="M43.306667 152.021333v469.333334q0 53.034667 37.504 90.538666 37.461333 37.461333 90.453333 37.461334h682.666667q53.034667 0 90.538666-37.461334 37.504-37.504 37.504-90.538666v-469.333334q0-52.992-37.504-90.453333-37.504-37.546667-90.496-37.546667h-682.666666q-53.034667 0-90.496 37.546667-37.546667 37.461333-37.546667 90.453333z m85.333333 0q0-17.664 12.501333-30.165333t30.165334-12.501333h682.666666q17.664 0 30.165334 12.501333t12.501333 30.165333v469.333334q0 17.706667-12.501333 30.165333-12.501333 12.501333-30.165334 12.501333h-682.666666q-17.664 0-30.165334-12.501333-12.501333-12.458667-12.501333-30.165333v-469.333334z m379.008 233.941334l73.813333-41.045334-12.288 86.144 61.525334 57.429334-86.101334 12.288-36.949333 77.909333-36.906667-77.909333-86.101333-12.288 61.525333-57.429334-12.330666-86.144 73.813333 41.045334z m-251.008-191.274667h512v85.333333h-512v-85.333333z"  horiz-adv-x="1024" />
      
      <glyph glyph-name="course1" unicode="&#58982;" d="M203.943253 414.464L26.876587 485.12a42.666667 42.666667 0 0 0 0 79.274667l448.512 179.2a42.666667 42.666667 0 0 0 31.658666 0l448.469334-179.2a42.666667 42.666667 0 0 0 26.794666-41.984h0.042667v-196.778667h-85.333333v136.106667l-118.528-47.36v-249.429334a42.666667 42.666667 0 0 0-12.714667-30.421333Q650.70592 21.333333 491.175253 21.333333q-159.488 0-274.56 113.237334a42.666667 42.666667 0 0 0-12.714666 30.421333v249.472z m85.333334-34.133333V183.466667q86.101333-76.8 201.941333-76.8t201.941333 76.8v196.864l-186.112-74.368a42.666667 42.666667 0 0 0-31.658666 0l-186.112 74.410666zM157.735253 524.8l333.482667-133.248L824.700587 524.8l-333.482667 133.248L157.735253 524.8z"  horiz-adv-x="1024" />
      
      <glyph glyph-name="credentials" unicode="&#58983;" d="M42.666667 128V640q0 53.034667 37.504 90.496Q117.632 768 170.666667 768h682.666666q53.034667 0 90.496-37.504Q981.333333 693.034667 981.333333 640v-512q0-53.034667-37.504-90.496Q906.368 0 853.333333 0H170.666667q-53.034667 0-90.496 37.504Q42.666667 74.965333 42.666667 128z m85.333333 0q0-42.666667 42.666667-42.666667h682.666666q42.666667 0 42.666667 42.666667V640q0 42.666667-42.666667 42.666667H170.666667Q128 682.666667 128 640v-512z m128 384h128V597.333333H256v-85.333333z m298.666667-128V554.666667a42.666667 42.666667 0 0 0 42.666666 42.666666h170.666667a42.666667 42.666667 0 0 0 42.666667-42.666666v-170.666667a42.666667 42.666667 0 0 0-42.666667-42.666667h-170.666667a42.666667 42.666667 0 0 0-42.666666 42.666667z m85.333333 128v-85.333333h85.333333V512h-85.333333z m-384-170.666667h128v85.333334H256v-85.333334z m0-170.666666h512v85.333333H256v-85.333333z"  horiz-adv-x="1024" />
      
      <glyph glyph-name="pull-down" unicode="&#58984;" d="M315.733333 550.4l225.834667-225.834667L767.402667 550.4 827.733333 490.069333l-256-256a42.666667 42.666667 0 0 0-60.330666 0l-256 256L315.733333 550.4z"  horiz-adv-x="1024" />
      
      <glyph glyph-name="refurbish" unicode="&#58985;" d="M835.669333 576l-55.168-55.168 60.330667-60.330667 128 128a42.666667 42.666667 0 0 1 0 60.330667l-128 128-60.330667-60.330667L835.669333 661.333333H341.333333q-123.477333 0-210.944-87.253333Q42.666667 486.613333 42.666667 362.666667h85.333333q0 88.533333 62.634667 150.997333Q253.141333 576 341.333333 576h494.336z m-647.338666-469.333333l55.168-55.168-60.330667-60.330667-128 128a42.666667 42.666667 0 0 0 0 60.330667l128 128 60.330667-60.330667L188.330667 192H682.666667q88.192 0 150.698666 62.336Q896 316.8 896 405.333333h85.333333q0-123.946667-87.722666-211.413333Q806.144 106.666667 682.666667 106.666667H188.330667z"  horiz-adv-x="1024" />
      
      <glyph glyph-name="sweep" unicode="&#58986;" d="M170.666667 725.333333h149.333333V810.666667H128a42.666667 42.666667 0 0 1-42.666667-42.666667v-192h85.333334V725.333333zM128-42.666667h192v85.333334H170.666667v149.333333H85.333333V0a42.666667 42.666667 0 0 1 42.666667-42.666667z m725.333333 85.333334h-149.333333v-85.333334H896a42.666667 42.666667 0 0 1 42.666667 42.666667v192h-85.333334V42.666667z m0 682.666666v-149.333333h85.333334V768a42.666667 42.666667 0 0 1-42.666667 42.666667h-192v-85.333334H853.333333z m-42.666666-384H213.333333v85.333334h597.333334v-85.333334z"  horiz-adv-x="1024" />
      
      <glyph glyph-name="location" unicode="&#58987;" d="M286.122667 761.984Q192 670.165333 192 540.117333q0-232.618667 296.661333-426.496a42.666667 42.666667 0 0 1 46.677334 0Q832 307.498667 832 540.117333q0 130.048-94.122667 221.866667Q644.266667 853.333333 512 853.333333 379.733333 853.333333 286.122667 761.984zM512 200.704q-234.666667 161.578667-234.666667 339.413333 0 94.08 68.352 160.768Q414.506667 768 512 768t166.314667-67.114667Q746.666667 634.197333 746.666667 540.117333q0-177.834667-234.666667-339.413333zM406.4 638.890667Q362.666667 595.2 362.666667 533.333333q0-61.866667 43.733333-105.6Q450.133333 384 512 384q61.866667 0 105.6 43.733333Q661.333333 471.466667 661.333333 533.333333q0 61.866667-43.733333 105.6Q573.866667 682.666667 512 682.666667q-61.866667 0-105.6-43.733334zM466.773333 488.106667Q448 506.88 448 533.333333t18.773333 45.226667Q485.461333 597.333333 512 597.333333t45.226667-18.773333q18.773333-18.730667 18.773333-45.226667t-18.773333-45.226666Q538.538667 469.333333 512 469.333333t-45.226667 18.773334z m359.253334-250.026667Q981.333333 191.445333 981.333333 106.666667t-155.392-131.413334q-130.986667-39.253333-313.941333-39.253333-182.997333 0-313.941333 39.253333Q42.666667 21.930667 42.666667 106.666667t155.392 131.413333l24.490666-81.749333q-52.352-15.744-79.018666-34.645334-10.154667-7.210667-14.293334-13.226666-0.682667-1.066667-1.024-1.792 0.341333-0.725333 1.024-1.749334 4.138667-6.058667 14.293334-13.269333 26.709333-18.901333 79.018666-34.602667Q341.546667 21.333333 512 21.333333q170.453333 0 289.450667 35.712 52.352 15.701333 79.018666 34.56 10.154667 7.253333 14.293334 13.312 0.682667 1.024 1.024 1.749334-0.341333 0.725333-1.024 1.749333-4.138667 6.058667-14.293334 13.269333-26.666667 18.901333-79.018666 34.645334l24.490666 81.706666z"  horiz-adv-x="1024" />
      
      <glyph glyph-name="pull-unfold" unicode="&#58988;" d="M315.733333 221.568l225.834667 225.834667 225.834667-225.834667 60.330666 60.330667-256 256a42.666667 42.666667 0 0 1-60.330666 0l-256-256L315.733333 221.568z"  horiz-adv-x="1024" />
      
      <glyph glyph-name="telenumber" unicode="&#58989;" d="M701.696 795.349333q-58.112 14.848-117.418667 5.845334l12.8-84.352q42.197333 6.4 83.498667-4.138667 56.832-14.549333 98.602667-57.173333 41.941333-42.752 56.32-101.12 10.453333-42.581333 4.096-86.058667l84.437333-12.373333q8.789333 60.032-5.674667 118.826666-19.925333 81.066667-78.250666 140.501334-58.453333 59.605333-138.410667 80.042666zM242.261333 742.016H342.186667q48.512 0 71.893333-42.922667l48.213333-88.490666q20.608-37.888 1.578667-76.629334l-39.765333-81.109333q13.482667-50.176 55.253333-92.757333 41.216-42.069333 89.301333-55.637334l78.890667 40.192q39.04 19.925333 77.141333-1.706666l87.04-49.322667q41.856-23.722667 41.856-72.234667v-101.845333q0-60.16-46.208-95.829333-48.085333-37.12-105.813333-17.28-244.48 84.096-366.677333 208.725333-122.069333 124.458667-204.458667 373.418667-19.114667 57.728 16.725333 105.984 35.285333 47.445333 95.146667 47.445333z m422.570667-90.581333q-35.882667 11.733333-73.258667 6.058666l12.8-84.352q37.418667 5.674667 64.213334-21.674666 27.306667-27.818667 21.546666-66.986667l84.437334-12.373333q5.504 37.546667-5.845334 73.642666-11.733333 37.461333-39.253333 65.450667-27.562667 28.16-64.64 40.234667z m-422.570667 5.248q-16.938667 0-26.581333-13.013334-9.386667-12.672-4.266667-28.245333 76.202667-230.186667 184.405334-340.522667 108.074667-110.208 333.525333-187.776 14.208-4.864 25.856 4.138667 13.056 10.069333 13.056 28.288V220.16l-83.84 47.530667-90.922667-46.378667a42.666667 42.666667 0 0 0-27.562666-3.84q-81.92 16-147.498667 82.858667-65.28 66.602667-81.194667 149.76a42.666667 42.666667 0 0 0 3.626667 26.794666l45.952 93.781334L340.053333 656.64h-97.706666z"  horiz-adv-x="1024" />
      
      <glyph glyph-name="bigclose" unicode="&#58990;" d="M512 323.669333l311.168-311.168 60.330667 60.330667L572.330667 384l311.168 311.168-60.330667 60.330667L512 444.330667 200.832 755.498667 140.501333 695.168 451.669333 384l-311.168-311.168 60.330667-60.330667L512 323.669333z"  horiz-adv-x="1024" />
      
      <glyph glyph-name="zhipay" unicode="&#58976;" d="M279.210667 325.546667c-10.325333-8.192-21.12-20.266667-24.106667-35.328-4.309333-20.693333-0.853333-46.549333 18.944-67.242667 24.106667-24.533333 61.184-31.445333 77.098667-32.725333 43.093333-2.986667 89.173333 18.517333 124.117333 42.666666a260.864 260.864 0 0 1 59.008 58.581334c-49.962667 25.856-112.426667 54.272-178.773333 51.712-34.048-1.28-58.624-8.192-76.288-17.664z m633.344-114.176a429.653333 429.653333 0 0 1 34.474666 168.448C947.029333 617.216 753.578667 810.666667 516.181333 810.666667 278.784 810.666667 85.333333 617.216 85.333333 379.818667c0-237.397333 193.450667-430.848 430.848-430.848 143.488 0 270.549333 70.656 349.013334 178.346666-74.112 36.650667-196.053333 97.408-271.445334 134.016-35.754667-40.96-88.746667-81.877333-148.650666-99.541333-37.504-11.178667-71.509333-15.488-106.837334-8.149333-35.370667 7.296-61.184 23.68-76.288 40.064a144.213333 144.213333 0 0 0-22.826666 31.872c0.426667-0.853333 0.853333-1.706667 0.853333-2.56q-3.84 6.4-6.442667 16.341333c-1.28 5.162667-2.56 9.898667-3.029333 15.104-0.426667 3.413333-0.426667 7.296 0 10.752-0.426667 6.442667 0 13.354667 1.28 20.266667 3.456 17.194667 10.794667 37.034667 29.738667 55.125333 41.386667 40.533333 96.512 42.666667 125.397333 42.24 42.24-0.426667 116.309333-18.986667 178.346667-40.96 17.237333 36.650667 28.458667 75.861333 35.328 102.144H342.101333v27.989333h132.693334V528.042667H314.581333v28.416h160.298667V612.48c0 7.765333 1.706667 13.781333 13.781333 13.781333h62.890667v-69.802666h174.506667v-27.989334h-174.506667v-56.021333h139.605333q-14.208-77.994667-57.728-155.093333c96.938667-34.474667 233.941333-87.893333 279.168-105.984z"  horiz-adv-x="1024" />
      
      <glyph glyph-name="weipay" unicode="&#58975;" d="M884.565333 563.285333c-2.730667 4.608-4.864 4.736-9.216 2.133334-14.336-8.746667-28.970667-17.066667-43.52-25.386667l-111.402666-63.573333c-43.946667-25.130667-87.893333-50.176-131.797334-75.392-62.08-35.669333-124.074667-71.424-186.112-107.093334-17.322667-9.984-33.92-4.650667-42.24 13.568-6.912 15.189333-13.952 30.336-20.906666 45.525334l-54.186667 118.741333c-3.285333 7.338667-2.048 12.586667 3.456 17.152 5.205333 4.352 11.392 4.352 17.792-0.213333 28.928-20.48 57.728-41.130667 86.826667-61.44 13.056-9.088 27.306667-10.410667 42.026666-3.925334 37.76 16.597333 75.52 33.109333 113.194667 49.834667 53.504 23.722667 106.88 47.573333 160.341333 71.253333 45.269333 20.138667 90.624 40.149333 136.021334 60.032 5.888 2.56 6.272 4.48 2.133333 9.130667a396.672 396.672 0 0 1-118.954667 89.685333 468.48 468.48 0 0 1-131.413333 42.922667c-27.776 4.821333-55.893333 7.850667-82.133333 6.314667-37.845333 1.066667-73.002667-3.285333-107.946667-10.794667-27.904-5.888-55.210667-14.378667-81.536-25.344C254.293333 686.805333 194.986667 642.901333 151.125333 579.84a295.168 295.168 0 0 1-54.613333-169.856c-0.128-28.672 4.096-57.173333 12.586667-84.608 16.64-54.570667 46.848-100.522667 87.466666-140.245333 13.909333-13.525333 29.013333-25.6 44.373334-37.333334 9.514667-7.253333 12.8-17.066667 10.069333-28.032-5.546667-22.357333-12.16-44.544-18.261333-66.773333l-2.986667-11.264c-1.706667-5.504 0.426667-11.477333 5.162667-14.677333 5.376-3.712 11.349333-2.816 16.981333 0.426666 29.952 17.109333 59.904 34.261333 89.898667 51.285334 8.746667 4.992 18.048 8.704 28.373333 6.613333 7.68-1.493333 15.232-3.626667 22.826667-5.674667 32.426667-8.789333 65.578667-13.013333 99.072-14.208 34.005333-1.152 67.84 0.554667 101.546666 6.144 28.074667 4.650667 55.68 11.093333 82.261334 20.778667 48.64 17.578667 93.610667 41.813333 133.162666 75.306667 55.168 46.677333 93.866667 103.509333 111.146667 173.952 9.130667 37.546667 10.581333 76.586667 4.266667 114.688a297.685333 297.685333 0 0 1-39.893334 106.922666z"  horiz-adv-x="1024" />
      
      <glyph glyph-name="course" unicode="&#58970;" d="M908.757333 298.752h4.096c3.968 0 7.125333-3.413333 7.125334-7.552v-84.138667c0-4.138667-3.157333-7.552-7.125334-7.552h-38.4c-3.968 0-7.082667 3.413333-7.082666 7.552v84.138667c0 4.138667 3.114667 7.552 7.125333 7.552h4.096l0.426667 247.168-5.12-2.176-373.930667-168.192a8.362667 8.362667 0 0 0-8.96 0.128L91.050667 560.341333a12.8 12.8 0 0 0 0.170666 21.333334l411.52 185.088a8.362667 8.362667 0 0 0 8.917334-0.128l400-184.661334a12.8 12.8 0 0 0-0.128-21.333333l-2.730667-1.28v-260.608z m-117.333333 138.197333v-349.824c0-20.949333-129.834667-89.216-290.133333-89.216-160.085333 0-290.048 68.394667-290.048 89.088V435.2l279.808-129.152a8.362667 8.362667 0 0 1 8.917333-0.128l291.413333 131.072z"  horiz-adv-x="1024" />
      
      <glyph glyph-name="apply" unicode="&#58971;" d="M745.813333 527.616l-311.381333-502.698667C408.533333-16.981333 361.557333-42.666667 310.826667-42.666667H189.866667C154.837333-42.666667 128-10.709333 128 27.562667V685.397333c0 38.272 26.88 70.229333 61.866667 70.229334h99.413333v-51.072c0-57.514667 40.362667-105.386667 91.477333-105.386667 51.157333 0 91.434667 47.872 91.434667 105.386667V755.626667h139.818667v-51.072c0-57.514667 40.32-105.386667 91.434666-105.386667 17.706667 0 34.048-9.173333 42.837334-23.936a45.653333 45.653333 0 0 0-0.469334-47.573333zM222.165333 480.341333a21.077333 21.077333 0 0 1-21.504-20.650666c0-11.392 9.642667-20.650667 21.504-20.650667h218.581334a21.077333 21.077333 0 0 1 21.504 20.650667 21.077333 21.077333 0 0 1-21.504 20.650666H222.165333zM216.917333 362.666667a21.077333 21.077333 0 0 1-21.504-20.650667c0-11.392 9.6-20.608 21.504-20.608h218.581334a21.077333 21.077333 0 0 1 21.504 20.608 21.077333 21.077333 0 0 1-21.504 20.650667H216.917333z m0-117.674667a21.12 21.12 0 0 1-21.546666-20.650667c0-11.392 9.642667-20.650667 21.546666-20.650666h102.357334a21.12 21.12 0 0 1 21.504 20.650666 21.12 21.12 0 0 1-21.504 20.693334h-102.4z m177.493334 419.968a32.256 32.256 0 0 0-19.413334-5.717333c-7.253333 0-14.506667 1.92-19.413333 7.594666a16.298667 16.298667 0 0 0-9.642667 15.146667V789.888c0 11.349333 12.117333 20.778667 29.056 20.778667 16.938667 0 29.056-9.429333 29.056-20.778667V680.106667c0-5.717333-4.821333-11.349333-9.685333-15.146667z m295.466666 0c-4.821333 3.712-9.728 9.429333-9.728 15.146667V789.845333c0 11.392 12.117333 20.821333 29.141334 20.821334 16.938667 0 29.056-9.429333 29.056-20.778667v-107.946667a16.341333 16.341333 0 0 0-9.728-15.104c-4.821333-5.674667-12.117333-7.594667-19.328-7.594666a32.256 32.256 0 0 0-19.456 5.717333h0.042666z m100.053334-206.506667l125.525333-72.405333c1.834667-1.109333 2.432-3.413333 1.28-5.205333l-105.472-168.533334-33.578667-54.4c-11.349333-17.578667-21.461333-33.706667-30.464-48.213333-8.874667-14.549333-16.341333-26.496-22.186666-35.925333a215.509333 215.509333 0 0 0-20.949334-29.653334 70.314667 70.314667 0 0 0-13.056-12.288 252.928 252.928 0 0 0-20.565333-14.592c-18.944-12.288-38.4-23.722667-58.325333-34.389333-6.826667-3.712-13.781333-7.125333-20.906667-10.154667-9.898667-3.498667-17.066667-3.669333-21.461333-0.512-4.437333 3.2-7.125333 9.6-8.106667 19.328a180.608 180.608 0 0 0-0.426667 23.168c0.64 20.821333 1.664 41.6 3.072 62.378667a121.6 121.6 0 0 0 2.602667 19.584 87.893333 87.893333 0 0 0 4.053333 15.573333 87.893333 87.893333 0 0 0 8.533334 16.64l11.648 19.157334c6.101333 10.112 13.909333 22.485333 23.168 37.333333l170.24 271.829333a3.968 3.968 0 0 0 5.376 1.28z"  horiz-adv-x="1024" />
      
      <glyph glyph-name="company" unicode="&#58972;" d="M640 768a42.666667 42.666667 0 0 0 42.666667-42.666667v-661.333333h64V426.666667a64 64 0 0 0 128 0v-362.666667h10.666666a32 32 0 0 0 0-64H138.666667a32 32 0 0 0 0 64H170.666667V725.333333a42.666667 42.666667 0 0 0 42.666666 42.666667h426.666667z m-117.333333-469.333333h-149.333334a32 32 0 0 1 0-64h149.333334a32 32 0 0 1 0 64z m0 128h-149.333334a32 32 0 0 1 0-64h149.333334a32 32 0 0 1 0 64z m-74.410667 278.272l-34.218667-69.333334-76.501333-11.093333L392.874667 570.453333l-13.056-76.16 68.437333 35.925334 68.437333-35.925334-13.098666 76.16 55.381333 54.016-76.501333 11.093334-34.218667 69.333333z"  horiz-adv-x="1024" />
      
      <glyph glyph-name="play" unicode="&#58973;" d="M387.413333 90.624l362.666667 258.645333a42.752 42.752 0 0 1 0 69.461334l-362.666667 258.645333a42.666667 42.666667 0 0 1-67.413333-34.730667v-517.290666a42.666667 42.666667 0 0 1 67.413333-34.730667z"  horiz-adv-x="1024" />
      
      <glyph glyph-name="bell" unicode="&#58974;" d="M851.84 59.562667q9.472-30.890667-30.890667-30.890667h-255.701333c5.546667-9.386667 8.533333-20.053333 8.576-30.890667a61.824 61.824 0 0 0-123.648 0.042667c0 11.306667 3.285333 21.76 8.576 30.890667H203.008q-40.362667 0-30.890667 30.933333v30.890667q-13.013333 31.274667 63.573334 103.082666c76.714667 71.765333 66.56 257.322667 66.56 383.018667q0 125.696 191.658666 128.384h36.352q191.573333-2.730667 191.573334-128.426667c0-125.696-10.069333-311.253333 66.56-383.061333q76.629333-71.808 63.445333-102.997333v-30.976zM511.445333 735.658667c-26.88 0-48.725333 21.589333-48.725333 48.213333 0 26.581333 21.76 48.170667 48.725333 48.170667 26.88 0 48.682667-21.589333 48.682667-48.213334 0-26.581333-21.802667-48.170667-48.682667-48.170666z"  horiz-adv-x="1024" />
      
      <glyph glyph-name="nexttime" unicode="&#58968;" d="M375.168 158.165333L601.002667 384 375.168 609.834667l60.330667 60.330666 256-256a42.666667 42.666667 0 0 0 0-60.330666l-256-256-60.330667 60.330666z"  horiz-adv-x="1024" />
      
      <glyph glyph-name="arrow" unicode="&#58969;" d="M793.002667 341.333333l-183.168-183.168 60.330666-60.330666 256 256a42.666667 42.666667 0 0 1 0 60.330666l-256 256-60.330666-60.330666L793.002667 426.666667H128v-85.333334h665.002667z"  horiz-adv-x="1024" />
      
      <glyph glyph-name="home" unicode="&#58964;" d="M144 605.184c0 6.016 3.413333 11.562667 8.789333 14.293333l344.874667 173.269334a32 32 0 0 0 28.714667 0L871.253333 619.52a16 16 0 0 0 8.789334-14.293333V544a16 16 0 0 0-16-16H160a16 16 0 0 0-16 16V605.184z m362.154667 117.418667l-18.901334-43.050667a6.4 6.4 0 0 0-5.205333-3.84L435.2 671.146667a6.4 6.4 0 0 1-3.626667-11.136l35.157334-31.274667a6.4 6.4 0 0 0 1.962666-6.144l-10.069333-45.952a6.4 6.4 0 0 1 9.514667-6.869333l40.576 23.722666a6.4 6.4 0 0 0 6.485333 0l40.576-23.722666a6.4 6.4 0 0 1 9.514667 6.826666l-10.069334 45.994667a6.4 6.4 0 0 0 1.962667 6.144l35.157333 31.274667a6.4 6.4 0 0 1-3.626666 11.136l-46.805334 4.650666a6.4 6.4 0 0 0-5.205333 3.797334l-18.901333 43.093333a6.4 6.4 0 0 1-11.690667 0z m-290.133334-258.602667c0 8.832 7.125333 16 16 16h64c8.832 0 16-7.168 16-16v-304h69.290667v304c0 8.832 7.168 16 16 16h64c8.832 0 16-7.168 16-16v-304h69.376v304c0 8.832 7.125333 16 16 16h64c8.832 0 16-7.168 16-16v-304h69.290667v304c0 8.832 7.168 16 16 16h64c8.874667 0 16-7.168 16-16v-304h24.021333c8.832 0 16-7.168 16-16V64h80c8.832 0 16-7.168 16-16v-64a16 16 0 0 0-16-16H96a16 16 0 0 0-16 16v64c0 8.832 7.168 16 16 16h80v80c0 8.832 7.168 16 16 16h24.021333v304z"  horiz-adv-x="1024" />
      
      <glyph glyph-name="people" unicode="&#58965;" d="M256 597.333333a256 256 0 1 1 512 0A256 256 0 0 1 256 597.333333z m426.666667 0a170.666667 170.666667 0 1 0-341.333334 0 170.666667 170.666667 0 0 0 341.333334 0z m85.333333-640H170.666667v85.333334a213.333333 213.333333 0 0 0 213.333333 213.333333h256a213.333333 213.333333 0 0 0 213.333333-213.333333v-85.333334h-85.333333z m0 85.333334a128 128 0 0 1-128 128H384a128 128 0 0 1-128-128h512z"  horiz-adv-x="1024" />
      
      <glyph glyph-name="password" unicode="&#58966;" d="M810.666667 469.333333h42.666666a42.666667 42.666667 0 0 0 42.666667-42.666666v-426.666667a42.666667 42.666667 0 0 0-42.666667-42.666667H170.666667a42.666667 42.666667 0 0 0-42.666667 42.666667V426.666667a42.666667 42.666667 0 0 0 42.666667 42.666666h42.666666V512a298.666667 298.666667 0 0 0 597.333334 0v-42.666667zM213.333333 384v-341.333333h597.333334v341.333333H213.333333z m256-85.333333h85.333334v-170.666667h-85.333334v170.666667z m256 170.666666V512A213.333333 213.333333 0 0 1 298.666667 512v-42.666667h426.666666z"  horiz-adv-x="1024" />
      
      <glyph glyph-name="eye" unicode="&#58967;" d="M512 768c230.058667 0 421.461333-165.546667 461.610667-384-40.106667-218.453333-231.552-384-461.610667-384-230.058667 0-421.461333 165.546667-461.568 384C90.538667 602.453333 281.941333 768 512 768z m0-682.666667a384.213333 384.213333 0 0 1 374.528 298.666667 384.213333 384.213333 0 0 1-749.013333 0A384.213333 384.213333 0 0 1 512 85.333333z m0 106.666667a192 192 0 1 0 0 384 192 192 0 0 0 0-384z m0 85.333333a106.666667 106.666667 0 1 1 0 213.333334 106.666667 106.666667 0 0 1 0-213.333334z"  horiz-adv-x="1024" />
      
    </font>
</defs>
</svg>
